#TITLE:向上飞;
#SUBTITLE:;
#ARTIST:Lexy;
#TITLETRANSLIT:;
#SUBTITLETRANSLIT:;
#ARTISTTRANSLIT:;
#CREDIT:;
#BANNER:h_logo.jpg;
#BACKGROUND:h_bg.jpg;
#LYRICSPATH:;
#CDTITLE:Lan.png;
#MUSIC:h.mp3;
#OFFSET:-0.020;
#SAMPLESTART:100.000;
#SAMPLELENGTH:12.000;
#SELECTABLE:YES;
#BPMS:0.000=130.000;
#STOPS:;
#BGCHANGES:;
// cache tags:
#FIRSTBEAT:4.000;
#LASTBEAT:304.500;
#SONGFILENAME:Songs/SDO 2/h/h.sm;
#HASMUSIC:1;
#HASBANNER:1;
#MUSICLENGTH:141.966;
// end cache tags

//---------------dance-single - sky----------------
#NOTES:
     dance-single:
     sky:
     Hard:
     10:
     0.947,1.000,1.000,0.113,0.296,634.000,285.000,16.000,0.000,16.000:

0000
0000
0000
0000
,
0100
0000
0000
0000
0100
0000
0000
0000
0100
0000
0000
0000
0001
0010
0100
1000
,
0010
0000
0000
0000
0010
0000
0000
0000
0010
0000
0000
0000
1000
0100
0010
0001
,
0100
0000
0000
0000
0100
0000
0000
0000
0100
0000
0000
0000
0001
0010
0100
1000
,
0010
0000
0000
0000
0010
0000
0000
0000
0010
0000
0000
0000
1000
0100
0010
0001
,
0100
0000
0000
0000
1010
0000
0000
0000
0001
0000
0000
0000
0101
0010
0100
1000
,
0010
0000
0000
0000
0101
0000
0000
0000
1000
0000
0000
0000
1010
0100
0010
0001
,
0100
0000
0000
0000
1010
0000
0000
0000
0001
0000
0000
0000
0101
0010
0100
1000
,
0010
0000
0000
0000
0101
0000
0000
0000
1000
0000
0000
0000
1010
0100
0010
0001
,
1000
0100
0011
0100
1000
0010
1100
0010
,
0100
0001
1010
0100
0001
0010
0101
0010
,
0100
0010
1100
0010
0001
1000
0011
0100
,
1100
1100
1100
0000
0011
0011
0011
0000
0110
0110
0110
0000
1001
1001
1001
0000
,
0110
0001
1100
0010
0011
1000
1010
1101
,
0110
0100
0011
0100
1010
0010
1100
0011
,
0110
1000
1100
0010
0011
0100
1010
0001
,
1100
0100
0011
0100
1100
0100
0011
0100
,
0011
0001
1100
0010
0110
1000
0101
1110
,
1010
1000
0101
0001
1010
0100
0101
0110
,
1010
1000
0011
0100
0110
0001
1001
0110
,
1100
1100
1100
0000
0011
0011
0011
0000
0110
0110
0110
0000
1001
1001
1001
0000
,
0100
0010
1000
0001
0010
0100
0001
0010
,
0100
1000
0001
0010
0100
0001
1000
0010
,
0100
0010
1000
0100
0001
0100
0010
1000
,
0010
0100
0001
0010
1000
0100
0001
0010
,
1000
0100
0011
0100
0001
0010
1100
0100
,
0010
0001
1100
0010
0100
0001
0011
0100
,
0010
0001
1100
0010
1000
0001
0110
0100
,
0001
0010
1100
0001
0010
1000
0101
0010
,
1100
1000
1010
1000
1001
1000
1100
1000
,
0110
0100
0101
0100
1100
0100
0110
0100
,
0011
0010
1010
0010
0110
0010
0011
0010
,
1001
0001
0101
0001
0011
0001
1001
0001
,
0110
0010
0011
0010
1010
0010
0110
0010
,
0110
0100
0101
0100
1100
0100
0110
0100
,
1001
1000
1100
1000
1010
1000
1001
1000
,
1001
0100
0010
0000
1001
0010
0100
0000
1001
0100
0010
0000
1001
0010
0100
0000
,
0110
0001
1100
0010
0011
1000
1010
1101
,
0110
0100
0011
0100
1010
0010
1100
0011
,
0110
1000
1100
0010
0011
0100
1010
0001
,
1100
0100
0011
0100
1100
0100
0011
0100
,
0011
0001
1100
0010
0110
1000
0101
1110
,
1010
1000
0101
0001
1010
0100
0101
0110
,
1010
1000
0011
0100
0110
0001
1001
0110
,
1100
1100
1100
0000
0011
0011
0011
0000
0110
0110
0110
0000
1001
1001
1001
0000
,
1000
0100
0011
0100
1000
0010
1100
0010
,
0100
0001
1010
0100
0001
0010
0101
0010
,
0100
0010
1100
0010
0001
1000
0011
0100
,
1100
1100
1100
0000
0011
0011
0011
0000
0110
0110
0110
0000
1001
1001
1001
0000
,
0010
0100
0101
1000
0001
0010
1010
0100
,
0100
0001
1100
0010
1000
0100
0011
1000
,
0100
0010
1001
0010
0100
0001
0110
0100
,
0011
0011
0011
0000
1100
1100
1100
0000
1001
1001
1001
0000
0110
0110
0110
0000
,
1100
0011
0011
0011
0011
0011
0011
0011
0011
0011
0011
0011
0011
0011
0011
0011
,
2100
0100
0000
0010
0001
0000
0100
0000
,
3012
0010
0000
0100
1000
0000
0010
0000
,
2003
0000
0100
0010
0001
0000
0100
0000
0001
0000
0100
0010
0000
0001
0010
0000
,
3102
0000
0010
0100
0000
1000
0100
0000
0010
0000
1000
0100
0000
0000
0010
0000
,
2103
0000
0010
0000
0001
0000
0100
0000
0010
0000
0001
0010
0000
0000
0000
0000
,
3012
0100
1000
0100
0010
0100
1000
0100
0010
0000
1000
0100
0000
0000
0000
0000
,
2103
0010
0001
0010
0100
0010
0001
0010
0100
0000
0010
0001
0000
0010
0100
0010
,
3102
0000
0010
1000
0000
0100
0010
0100
1000
0000
0100
0010
0000
1000
0000
0000
,
1013
1010
1010
0000
0101
0101
0101
0000
1100
1100
1100
0000
0011
0011
0011
0000
,
0110
0001
1100
0010
0011
1000
1010
1101
,
0110
0100
0011
0100
1010
0010
1100
0011
,
0110
1000
1100
0010
0011
0100
1010
0001
,
1100
0100
0011
0100
1100
0100
0011
0100
,
0011
0001
1100
0010
0110
1000
0101
1110
,
1010
1000
0101
0001
1010
0100
0101
0110
,
1010
1000
0011
0100
0110
0001
1001
0110
,
1100
1100
1100
0000
0011
0011
0011
0000
0110
0110
0110
0000
1001
1001
1001
0000
,
0100
0010
0101
1000
0110
0000
0101
0000
,
0010
0100
0011
0100
1010
0000
0110
0000
,
1000
0100
1010
0000
1001
0010
1100
0001
,
0001
0010
0100
0000
1000
0100
0010
0000
0001
0010
0100
0000
1000
0100
0010
0000
,
0022
0000
2200
0033
0022
3300
2200
0033
,
0000
3300
0000
0000
0000
0000
0000
0000
;
